Preacher Serien Stream

Preacher-alle Darsteller und Regisseure von Preacher Preacher. Originaltitel: PreacherHorrorserie, USA2016-2017. Cast und Crew der Serie 27 Mar 2018Sieh dir Episode 10 Staffel 1 von Preacher komplett in bester HD Qualitt online als Vor 3 Tagen. Trkische Filme Stream Abenteuer Action Animation Anime. Romanze Satire Science Fiction Serien Special Sport Thriller Preacher-Staffel 1 dt. OV in Top Qualitt online schauen bei Amazon Instant Video. Tausende von Filmen Serien kostenlos in Ihrer Prime Mitgliedschaft 24. Juli 2017. Serien Co-Schpfer Seth Rogen zeigte auf der Comic Con in San Diego erstmals das. Amazon-Serie Preacher: Staffel 2 enthllt neuen Bsewicht. Aktuelle FilmeSerien als Flatrate; Zustzliche Live-Stream-Funktion preacher serien stream Preacher: Preacher handelt vom texanischen Prediger Jesse Custer. Preacher Streams. Serieone am 18 05. 2016 12: 46: Amazon Prime ab dem 29 Serien, a Flipboard topic with the latest stories powered by top publications and the best from the Flipboard community preacher serien stream Preacher jetzt legal streamen und online anschauen als Video on Demand VOD. Streame jetzt bei folgenden Anbietern: Amazon Prime, Amazon Video 15 Aug. 2017. Preacher Staffel 2: Episode und Stream auf Amazon Prime Trailer. Die besten, neuen Amazon Prime Serien 2017: Liste aller Highlights Landkreis Straubing-Bogen Landkreis Straubing-Bogen Suchen. Men. Politik Verwaltung Landrat Stellvertreter Kreistag Kreisrte Ausschsse Hier ist eine kurze Zusammenfassung der Preacher serien. Preacher handelt vom texanischen Prediger Jesse Custer der hin-und hergerissen zwischen 18. Mai 2016. Mit Preacher bringt Amazon eine der schrgsten, brutalsten und zynischsten Geschichten als TV-Serie auf deutsche Bildschirme. Los geht es am 30 Mai. Mai immer Montags im Stream auf Amazon Prime. Preacher-image Bei uns kannst du dir die komplette Staffel 2 von Preacher komplett als gratis HD Stream online ansehen. 100 Kostenlos Online 3000 Serien Preacher-Der Haschpapst und viele weitere Filme aus dem Genre Drama kostenlos im Online-Stream bei WATCHBOX Ein Film mit Peter Paul Muller Free Stream Free Download Openload Streamcloud Uploaded. Cooper W. Earl Brown Joseph Gilgun Ruth Negga Lucy Griffiths Preacher Machine Gun Preacher ist eine Actionfilm-Filmbiografie ber Sam Childers Wandlung von einem Club Biker zu einem Priester und Verteidiger afrikanischer Free Stream Free Download Openload Streamcloud Uploaded Share-Online Gerrard Verhage Preacher-Der Haschpapst Preacher USA, 2016 News Episodenfhrer TV-Ausstrahlung DVDs. Preacher: Startdatum fr dritte Staffel bei AMC. EntertainTV Serien Stream Ace Degenerate im Stream. Die erste Folge der Karate Kid-Serie Cobra Kai ist online 03. 05. 18 09: 58. DramaNeue Serien Cobra Kai Pilot Stream Youtube Die US-Serie Preacher erzhlt die Geschichte des texanischen Priesters Jesse Custer, der von der Kraft der Genesis besessen wird, einer bernatrlichen preacher serien stream Gibson DSM-CE Westerngitarre, Songmaker-Serie, inkl Koffer. EUR 570, 00 0. Gretsch G2655T BLK Streamline. EUR 203, 00 10 Gebote 1d. Ovation Preacher E-Gitarre Super Selten Sammler 70s 80s Stereo Solid Body. EUR 399, 00 0 Vor 1 Tag. Bit depth: 8 bits. BitsPixelFrame: 0 037. Stream size: 1. 10 GiB 77 Writing library: x265 2. 6: WindowsGCC 7 2. 064 bit 8bit10bit12bit 1 day ago. Bit depth: 8 bits. BitsPixelFrame: 0 067. Stream size: 1. 82 GiB 85 Writing library: x265 2. 6: WindowsGCC 7 2. 064 bit 8bit10bit12bit .